The Techniques of Feng Zhu (Vol.1-3)

 

The Techniques of Feng Zhu (Vol.1-3)
3xDVDRip | English | AVI | 720 x 480 | DX50 ~736 Kbps | 29.970 fps
MP3 | 24 kbps | 48.0 KHz | 2 channels | ~6 hours | 2 GB
Genre: Video Tutorial / Drawing


When working from a design brief, idea generation is one of the most difficult aspects of the job. This lecture has two main components, each covering an important part of the design process. First, you will see how designs are generated, by watching Feng sketch over forty rough thumbnails and quick silhouettes. The sketches are then critiqued in order to identify the most visually successful. The entire lecture focuses on a single client brief: melee-style gladiator fighting robots of the future.


The Gnomon Workshop - The Techniques of Feng Zhu Volume 1: Design Process - Fighting Robots
When working from a design brief, idea generation is one of the most difficult aspects of the job. This lecture has two main components, each covering an important part of the design process. First, you will see how designs are generated, by watching Feng sketch over forty rough thumbnails and quick silhouettes. The sketches are then critiqued in order to identify the most visually successful. The entire lecture focuses on a single client brief: melee-style gladiator fighting robots of the future.
The software used in this DVD is Corel Painter
The Gnomon Workshop - The Techniques of Feng Zhu Volume 2: Robot Design Refinement and Rendering
Starting with thumbnail silhouettes chosen from the previous lecture, two distinctive designs are drawn, refined and rendered for client presentation. See how two robots, that follow the same brief, can be given strong visual identities through the use of different form languages. The purpose of this process is to end up with a clear presentation of a solid design.
The software used in this DVD is Corel Painter and Adobe Photoshop.
The Gnomon Workshop - The Techniques of Feng Zhu Volume 3: Fundamentals of Shot Design for Environments
This DVD breaks down the individual components necessary to stage a successful environment design. First covered are the basics of perspective, followed by demos explaining the use of scale and composition. Next, the fundamentals of lighting and values are illustrated. Finally, watch Feng sketch out various environments, incorporating all the topics covered above.
The software used in this DVD is Corel Painter.

More Info: homepage

MediaInfo
General
Complete name                            : Gnomon - Feng Zhu - Vol. 1 - Design Process - Fighting Robots (CD1 of 1).avi
Format                                   : AVI
Format/Info                              : Audio Video Interleave
File size                                : 694 MiB
Duration                                 : 2h 6mn
Overall bit rate                         : 769 Kbps
Writing library                          : VirtualDub build 10805/release

Video
ID                                       : 0
Format                                   : MPEG-4 Visual
Format settings, BVOP                    : 1
Format settings, QPel                    : No
Format settings, GMC                     : No warppoints
Format settings, Matrix                  : Default (H.263)
Muxing mode                              : Packed bitstream
Codec ID                                 : DX50
Codec ID/Hint                            : DivX 5
Duration                                 : 2h 6mn
Bit rate                                 : 736 Kbps
Width                                    : 720 pixels
Height                                   : 480 pixels
Display aspect ratio                     : 3:2
Frame rate                               : 29.970 fps
Standard                                 : NTSC
Color space                              : YUV
Chroma subsampling                       : 4:2:0
Bit depth                                : 8 bits
Scan type                                : Progressive
Compression mode                         : Lossy
Bits/(Pixel*Frame)                       : 0.071
Stream size                              : 664 MiB (96%)
Writing library                          : DivX 5.1.1 (Maupiti) (UTC 2003-11-19)

Audio
ID                                       : 1
Format                                   : MPEG Audio
Format version                           : Version 2.5
Format profile                           : Layer 3
Mode                                     : Joint stereo
Mode extension                           : Intensity Stereo + MS Stereo
Codec ID                                 : 55
Codec ID/Hint                            : MP3
Duration                                 : 2h 6mn
Bit rate mode                            : Constant
Bit rate                                 : 24.0 Kbps
Channel(s)                               : 2 channels
Sampling rate                            : 11.025 KHz
Compression mode                         : Lossy
Stream size                              : 21.7 MiB (3%)
Alignment                                : Split accross interleaves
Interleave, duration                     : 52 ms (1.57 video frames)
Interleave, preload duration             : 378 ms

Screenshots



The Techniques of Feng Zhu (Vol.1-3)
The Techniques of Feng Zhu (Vol.1-3)
The Techniques of Feng Zhu (Vol.1-3)

 

 


Hide Your IP & Protect Your Privacy!
Get Your 15 Day Free Trial Now.

 TO MAC USERS: If RAR password doesn't work, use this archive program: 

RAR Expander 0.8.5 Beta 4  and extract password protected files without error.


 Schero   |  




rss